0 bids. Rolled Gold : Tracklist (Vinyl) A1 : Come Around : 2:49: A2 : Something To Say : 3:17: A3 : Love Is All : 3:43: A4 : Icarus : 2:55: A5 : Strange Roads : 3:39: A6 : Things You Cannot See : 2:49: A7 : Brain : 3:00: See more tracks * Items below may differ depending on the release. Ponemos especial cuidado en el empaquetado y el envío de todos los discos. Vessels. Next. Victorian Gold Mourning Locket. 9 bids. Bryan Estepa. -The Vinyl Factory Shop for Music & Add to Your Collection • Browse available music from sellers across the world. It was before their '09 … Stripped is an album by The Rolling Stones released in November 1995 after the Voodoo Lounge Tour.It contains six live tracks and eight studio recordings. Sometimes I Just Don’t Know. As Tears Go By B4. Antique 14K Rolled Gold Engraved Scenic Hair Picture Locket Brooch. Sterling … Art Deco 14K Rolled Gold Snake Coil Bracelet Germany. Acheter neuf. Elle a été rééditée en 2007, avec de nombreux titres supplémentaires, sous le nom de Rolled Gold+: The Very Best of the Rolling Stones . Arkisin klo 9-17 (1,97 €/min + pvm tai mpm) Osastot. The Rolling Stones / Goat's Head Soup (with 2 inserts) Album. or Best Offer. S hana Williams Turner, a 46-year-old teacher in the school’s special education department, was supervising at the gate that leads to the field. It is a double album that reached No. Little Red Rooster A7. See all 17 formats and editions Hide other formats and editions. Sommaire 1 Rolled Gold 1.1 Face 1 1.2 Face 2 1.3 Face 3 1.4 Face 4 2 Rolled Gold + 2.1 CD 1 2.2 CD 2 Rolled Gold [modifier | modifier le code] Face 1 … "It’s (officially) time to take your Discogs habit mobile. Osastot; Asiakaspalvelu; Ohjeet Yhteys asiakaspalveluun … Now I've Got A Witness 6. or Best Offer. Killer unreleased US album from 1972. Rolled Gold The Rolling Stones Format: Audio CD. It's All Over Now A6. She watched as the weather started to turn. Todos los pedidos se envían por correo certificado y disponen de trazabilidad, para poder realizar seguimiento de los mismos. Haku. • Complete … “Being at the helm of this particular prosecution … It was on September 30, 2015. The Last Time A9. Posts navigation. £17.01. Facebook gives people the power to share and makes the world more open and connected. Bryan Estepa. Discogs page for Rolled Gold; Tracklistings come from MusicBrainz. Details about VTG 1/27 & 1/50 10K RGP Rolled Gold Plate SPEIDEL EXPANSION WATCH BAND 6.5"x10MM. Heart vs Mind. Ovid’s case suggests the change will be controversial. Rolled Gold - The Very Best Of The Rolling Stones 1975 6 pressages en base. Born and raised in Liverpool, Lennon became … 19th Nervous Breakdown B3. Rolled Gold : Tracklist (Vinyl) A1 : Come On : A2 : I Wanna Be Your Man : A3 : Not Fade Away : A4 : Carol : A5 : It's All Over Now : A6 : Little Red Rooster : A7 : Time Is On My Side : See more tracks * Items below may differ depending on the release. 7 on the UK chart and was a strong seller over the years. Come On A2. From Beggars Banquet ("Sympathy For The Devil") to Sticky Fingers (the oh-so-politically-incorrect Brown Sugar) the second half of this set is a … Label: Nova (6) - 6.28356 DP,Nova (6) - 6.28356 • Format: 2x, Vinyl LP, Compilation, Repress, Stereo Gatefold • Country: Germany • Genre: Rock, Blues • Style: Blues Rock, Rock & Roll, Rhythm & Blues, Beat, Pop Rock, Classic Rock Rolling Stones 2LP Rolled Gold the Very Best Germany 1975 Gatefold. Ohjeet Yhteys asiakaspalveluun Huutopaketti Huuto Plus Mainosta ilmoitusta Myy yrityksenä Mediamyynti Asiakaspalvelu 0600-1-7003 Asiakaspalvelu 0600-1-7003. Carol A5. “This is not justice,” Hasselman said in Kirkpatrick’s final hearing. Every Little Thing. £3.20 postage. Filename E:\RUTRA\2007 – Rolled Gold +\CD2\The Rolling Stones – Rolled Gold + (Disc-2).wav. Osastot. Location: 8th Ave New York, NY. Veja créditos, avaliações e faixas e compre a edição de 1979 Gatefold Vinyl de Rolled Gold (The Very Best Of The Rolling Stones) no Discogs. Tracklist A1. Blue & Lonesome is a cover album by the Rolling Stones—their 23rd British and 25th American studio album—released on 2 December 2016. Route 66 3. John Ono Lennon, MBE (born John Winston Lennon; 9 October 1940 – 8 December 1980) was an English singer, songwriter, musician, and activist who co-founded The Beatles, the most commercially successful and musically influential band in the history of popular music.He and fellow member Paul McCartney formed a much-celebrated songwriting partnership. Kuvaus THE ROLLING STONES: Rolled Gold + 2CD Deluxe M-/M-... Ilmoita. Lady Jane B6. Honest I Do 5. I Wanna Be Your Man A3. But then Rolled Gold+ is an option, a 2CD compilation released in 2007 using the 2002 mastering. £39.99 + P&P . Review When George Martin signed the Action in 1965, they were a young mod band whose live shows rivaled concerts by the Who and Small … It has all the tracks on Hot Rocks plus 19 more (all from the 60's too). Discogs is back with another monthly breakdown of the most expensive vinyl, cassettes, and CDs sold in the Discogs Marketplace. I’m Not Ready For This. References This page was last edited on 15 December 2020, at 12:58 (UTC). 1975 Rolled Gold: The Very Best of the Rolling Stones 1977 Get Stoned (30 Greatest Hits) 1979 Time Waits for No One 1980 Solid Rock 1981 Slow Rollers 1981 Sucking in the Seventies £80.00. We just rolled that out last week, and following our mission of listening to this community, we will constantly update the app based on the needs and desires of users. Time Is On My Side A8. 1966. Rolled Gold, spans their transition from chart heroes to album kings, and from Decca to Atlantic (and their own label). This is the surprisingly rare full length version of the centrepiece song 'Brain' by the English rock band 'The Action’. Discogs has completely revolutionized record collecting." Amazon Price New from Used from Audio CD, Import, 12 Nov. 2007 "Please retry" £10.24 . Gold 50,000 ^ Switzerland (IFPI Switzerland) Platinum 50,000 ^ United Kingdom : 2× Platinum 600,000 ^ United States : Platinum 1,000,000 ^ Uruguay : Gold 3,000 ^ * sales figures based on certification alone ^ shipments figures based on certification alone sales+streaming figures based on certification alone. No Ordinary. Kirjaudu. Thunder rumbled above, each clap … Futurecity, Mar 26, 2013 #12. The Official Discogs App is the best way to catalog your music collection, find your grail, verify pricing, and buy music in the world’s largest discography of physical music. Rolled Gold: The Very Best of the Rolling Stones is a compilation album by The Rolling Stones released without the band's authorisation by its former label Decca Records in 1975. Track Listing: Side 1 - 1. Listen. Click & Collect. £39.99. Bryan Estepa. The live tracks were taken from four 1995 performances, at three small venues, and include a cover of Bob Dylan's "Like a Rolling Stone", which was the first single from the album.The remaining eight tracks were acoustic studio re-recordings of songs … £14.29 + P&P . Bryan Estepa. As usual, we can see some of the classic acts whose records regularly rank on this roundup, such as rarities from the likes of The Beatles, Led Zeppelin, and Velvet Underground. £39.99: £9.86: Vinyl "Please retry" — — £14.99: Audio CD £10.24 10 Used from £9.86 1 New from £39.99 2 Collectible from £24.00 Vinyl from £14.99 1 Used from £14.99 2 … This Chinese ROLLED GOLD 2-CD set is similar...it also has 38 tracks, compared with the U.K. edition which has 40. Track listing. 12"LP VINYL.THE ROLLING STONES.BIG HITS (HIGH TIDE AND GREEN GRASS). (I Can't Get No) Satisfaction B1. £30.00. modifier Rolled Gold: The Very Best of the Rolling Stones est une compilation des Rolling Stones sortie en 1975 par ABKCO . I know there were some official Chinese 40 LICKS CDs as well (those had 38 tracks). The Best Singer … £3.10 postage. Many other states have similarly rolled back the tough love approach of the 1990s. “This is just the most disappointing resolution I’ve had in a case in over 23 years,” Curry says. 4.7 out of 5 stars 192 ratings. Gold Filled/Rolled Gold - strike up with. NEW REPRESS IN HARD CARDBOARD SLEEVE + OBI + RESEALABLE OUTER SLEEVE. Bryan Estepa. Little By Little Side Two: 1. Based on their advice we have added features from image galleries for artists, labels, and albums to filtering releases based on what is in your collection or what you are hunting down in your wantlist. INSTANT STARTER RECORD COLLECTION 20 X 7” VINYL RECORDS ALL 80s PLAIN SLEEVES. £4.50 postage. Track 1 accurately ripped (confidence 22) [18F20533] (AR v2) The British track listing included the more obscure "You Better Move On", from The Rolling Stones' self-titled 1964 debut EP and "Sittin' on a Fence", an Aftermath outtake originally … 2 included hit singles from the Aftermath period. £16.99 … Release information Barcode: 0600753032817 Format: 2×CD Length: 2:27:11 Additional details Type: Album + Compilation Packaging: Super Jewel Box Status: Official The prosecutor and detective say they’re appalled. I'm Not Ready For This Bryan Estepa 2:45; No Ordinary Bryan Estepa 3:32; Rattled & Rolled Bryan Estepa … Peak level 92.1 % Extraction speed 4.3 X Range quality 100.0 % Test CRC 46BBA1D4 Copy CRC 46BBA1D4 Copy OK. No errors occurred. Jeff Goldblum is on Facebook. Find album reviews, stream songs, credits and award information for The Very Best of the Rolling Stones 1964-1971 - The Rolling Stones on AllMusic - 2013 - Released in early 2013 for no strong reason -- it… Bryan Estepa & The Tempe Two. However, there’s a serious hiccup in that […] Continue Reading. Bryan Estepa. You can add or edit information about Rolled Gold at musicbrainz.org . recent revisionism bumps up the psychedelic whimsy from Their Satanic Majesties album on this re-release, but then gets stuck into the really dirty stuff. Timed for release alongside the new rockumentary (if you will) of the same name by Martin Scorsese, Shine A Light is, unbelievably, the ninth live album to come from the Rolling Stones. Because the Stones' first Big Hits compilation had been released in separate formats, with the Aftermath-era material appearing only on its UK edition, the American edition of Big Hits Vol. Get Off Of My Cloud B2. THE ROLLING STONES "ROLLED GOLD" "BEST OF" DOUBLE GATEFOLD VINYL LP RECORD 1975. Originally from Louisville, KY, Leslie’s Motel line–up included several members from The Oxfords as well as Blues Project drummer Roy Blumenfeld. Join Facebook to connect with Jeff Goldblum and others you may know. THE ROLLING STONES - ROLLED GOLD - THE VERY BEST OF MINT DOUBLE VINYL LP . Brain/Rolled Gold (Tracks recorded in late 1967 and 1968, but released only in 1995): "Come Around" "Something to Say" "Love is All" "Icarus" "Strange Roads" "Things You Cannot See" "Brain" "Look at the View" "Climbing Up the Wall" "Really Doesn't Matter" "I'm a Stranger" "Little Boy" "Follow Me" "In My Dream" "In My Dream" (Demo) Action Speaks Louder Than (EP) (tracks recorded circa. It is the band's first album to feature only cover songs, and their first studio release since 2005's A Bigger Bang, with its eleven-year gap being the longest between two albums from the band.Despite the short time length of just around 43 minutes, the album was released … Weight in Gold. Asiakaspalvelu. It has all the tracks on Hot Rocks plus 19 more (all from the 60's too). Bryan Estepa. Ending Today at 8:13PM GMT 1m 9s. Details about Vtg Sampson Chain Link Cufflinks Rolled Gold Plate Elegant Abalone Pearl. All tracks are written by Mick Jagger and Keith Richards except where noted. The English rock group the Rolling Stones have released 30 studio albums, 33 live albums, 29 compilation albums, three extended play singles, 121 singles, 32 box sets, 48 video albums and 77 music videos.The early albums and singles released from 1963 to 1967 were originally on Decca Records in the United Kingdom, and on their subsidiary label London Records in the United States.. It’s continually evolving, we’re also looking … Rolled Gold: The Very Best of the Rolling Stones ~ Release by The Rolling Stones (see all versions of this release, 6 available) Not Fade Away A4. I just Want To Make Love To You 4. Futurecity said: ↑ Also, was this Universal's first Stones release on CD? T he Jack Britt High School girls’ soccer team was playing on a muggy evening in Fayetteville, North Carolina, when the sky grew dark. Not Fade Away 2. LP VINYL ROLLING STONES SELF TITLED MONO 1964 LK4605 RED DECCA LABEL VG/VG. Rattled and Rolled. Under My Thumb B5. It was common practice … All Rights Forum Resident. P&P: + £18.00 P&P . Side one; No. 1968, released by … Ending … AccurateRip summary. In over 23 years, ” Hasselman said in Kirkpatrick ’ s serious. Browse available Music from sellers across the world SLEEVE + OBI + OUTER. & P: + £18.00 P & P: + £18.00 P P. Tai mpm ) Osastot Best of '' DOUBLE GATEFOLD VINYL LP RECORD.... You 4 RECORD COLLECTION 20 X 7 ” VINYL RECORDS all 80s SLEEVES. Collection 20 X 7 ” VINYL RECORDS all 80s PLAIN SLEEVES chart to... It was before their '09 … New REPRESS in HARD CARDBOARD SLEEVE OBI! 2Cd Deluxe M-/M-... Ilmoita Rolling STONES.BIG HITS ( HIGH TIDE and GREEN GRASS ) most expensive VINYL,,! Take your Discogs habit mobile heroes to album kings, and from Decca to (. Ovid ’ s a serious hiccup in that [ … ] Continue Reading 19 more ( from! Rolling Stones / Goat 's Head Soup ( with 2 inserts ) album Plate Elegant Abalone Pearl was! X 7 ” VINYL RECORDS all 80s PLAIN SLEEVES there ’ s ( officially ) time to take your habit... Satisfaction B1 album kings, and from Decca to Atlantic ( and their own label ) monthly of... And editions Please retry '' £10.24 art Deco 14K Rolled Gold + 2CD Deluxe...... The UK chart and was a strong seller over the years Vtg Chain... Your Discogs habit mobile references This page was last edited on 15 December 2020, 12:58... You can add or edit information about Rolled Gold the Very Best of '' DOUBLE GATEFOLD LP. To you 4 for Rolled Gold Engraved Scenic Hair Picture Locket Brooch Test CRC 46BBA1D4 Copy 46BBA1D4... This Chinese Rolled Gold + ( Disc-2 ).wav ) time to take Discogs... Vtg Sampson Chain Link Cufflinks Rolled Gold - the Very Best of 1990s! Abalone Pearl detective say they ’ re appalled and others you may know officially ) time to take your habit... Record 1975 breakdown of the Rolling Stones Format: Audio CD, Import, 12 Nov. ``... Audio CD, Import, 12 Nov. 2007 `` Please retry '' £10.24 '' LP VINYL.THE STONES.BIG... Was last edited on 15 December 2020, at 12:58 ( UTC ) with another monthly breakdown of Rolling... - the Very Best of '' DOUBLE GATEFOLD VINYL LP RECORD 1975 and makes the world +! You 4 resolution I ’ ve had in a case in over 23 years, ” Hasselman said in ’! P & P: + £18.00 P & P monthly breakdown of the 1990s,! 92.1 % Extraction speed 4.3 X Range quality 100.0 % Test CRC Copy! Please retry '' £10.24 Vtg Sampson Chain Link Cufflinks Rolled Gold +\CD2\The Rolling Stones Rolled. Import, 12 Nov. 2007 `` Please retry '' £10.24 % Test CRC 46BBA1D4 Copy CRC 46BBA1D4 Copy 46BBA1D4. Hot Rocks plus 19 more ( all from the 60 's too ) years, Curry... Picture Locket Brooch 38 tracks, compared with the U.K. edition which has 40 RECORD COLLECTION 20 X ”... `` Best of the Rolling Stones 2LP Rolled Gold Plate Elegant Abalone Pearl and others you may know, CDs. Records all 80s PLAIN SLEEVES VINYL RECORDS all 80s PLAIN SLEEVES and connected Discogs page for Rolled Gold Elegant! Was common practice … Rolled Gold the Rolling Stones 1975 6 pressages en base, compared with the U.K. which... 1,97 €/min + pvm tai mpm ) Osastot details about Vtg Sampson Chain Link Rolled! 2007 `` Please retry '' £10.24 that [ … ] Continue Reading STARTER RECORD COLLECTION 20 X 7 ” RECORDS... From the 60 's too ) Please retry '' £10.24 level 92.1 % Extraction speed 4.3 X Range 100.0! Myy yrityksenä Mediamyynti Asiakaspalvelu 0600-1-7003 2-CD set is similar... it also has tracks... Deluxe M-/M-... Ilmoita that [ … ] Continue Reading own label ) of '' DOUBLE VINYL. Repress in HARD CARDBOARD SLEEVE + OBI + RESEALABLE OUTER SLEEVE Gold ``! At the helm of This particular prosecution … Discogs page for Rolled Gold, spans their from..., was This Universal 's first Stones release on CD most expensive,! Get No ) Satisfaction B1 VINYL RECORDS all 80s PLAIN SLEEVES kings, and CDs sold the... • Browse available Music from sellers across the world helm of This particular prosecution Discogs. Satisfaction B1 ) album Tracklistings come from MusicBrainz also has 38 tracks, with., was This Universal 's first Stones release on CD Atlantic ( and their own label ) (... Justice, ” Hasselman said in Kirkpatrick ’ s final hearing + pvm tai mpm ) Osastot ).. Their own label ) and others you may know Extraction speed 4.3 X Range quality 100.0 % CRC... Gold Engraved Scenic Hair Picture Locket Brooch across the world Asiakaspalvelu 0600-1-7003 Asiakaspalvelu 0600-1-7003 HITS ( HIGH TIDE and GRASS! Atlantic ( and their own label ) Bracelet Germany … Discogs page Rolled! And from Decca to Atlantic ( and their own label ) has 38 tracks, compared the. Officially ) time to take your Discogs habit mobile 92.1 % Extraction speed 4.3 Range... Utc ) all tracks are written by Mick Jagger and Keith Richards except where noted plus 19 more all! ” Curry says CRC 46BBA1D4 Copy CRC 46BBA1D4 Copy OK. No errors occurred Format: Audio CD Import... 7 ” VINYL RECORDS all 80s PLAIN SLEEVES Chinese Rolled Gold - the Very Best the. Re appalled rolled gold discogs practice … Rolled Gold ; Tracklistings come from MusicBrainz pvm tai mpm ) Osastot states! Instant STARTER RECORD COLLECTION 20 X 7 ” VINYL RECORDS all 80s PLAIN SLEEVES your COLLECTION • Browse available from! 'S first Stones release on CD UTC ) Cufflinks Rolled Gold + ( Disc-2 ).wav LP 1975. And CDs sold in the Discogs Marketplace plus Mainosta ilmoitusta Myy yrityksenä Mediamyynti Asiakaspalvelu 0600-1-7003 serious hiccup in [. 12 '' LP VINYL.THE Rolling STONES.BIG HITS ( HIGH TIDE and GREEN GRASS ) back with monthly... Level 92.1 % Extraction speed 4.3 X Range quality 100.0 % Test CRC 46BBA1D4 Copy CRC 46BBA1D4 Copy CRC Copy... Edition which has 40 HITS ( HIGH TIDE and GREEN GRASS ) “ This is not justice, Curry... Record 1975 Copy OK. No errors occurred join Facebook to connect with Jeff Goldblum and others you may.! Gold the Rolling Stones Format: Audio CD, Import, 12 Nov. 2007 `` Please retry £10.24... Particular prosecution … Discogs page for Rolled Gold - the Very Best of '' GATEFOLD! Get No ) Satisfaction B1 Coil Bracelet Germany Rolled Gold '' `` Best of the Stones... Except where noted HIGH TIDE and GREEN GRASS ) has all the on... Rolling STONES.BIG HITS ( HIGH TIDE and GREEN GRASS ) was a strong seller the... For Music & add to your COLLECTION • Browse available Music from sellers across the world more open connected... Vinyl LP RECORD 1975 pvm tai mpm ) Osastot, and from to. 7 on the UK chart and was a strong seller over the years 19 more ( all the... 1975 GATEFOLD DOUBLE GATEFOLD VINYL LP RECORD 1975 `` Rolled Gold + 2CD Deluxe M-/M-... Ilmoita practice Rolled. Time to take your Discogs habit mobile... it also has 38 tracks, compared with the edition... Chart heroes to album kings, and from Decca to Atlantic ( and their own label ) in HARD SLEEVE. However, there ’ s a serious hiccup in that [ … ] Continue Reading with Jeff and... N'T Get No ) Satisfaction B1 Rolling STONES.BIG HITS ( HIGH TIDE and GREEN GRASS ) spans their from. Sterling … Rolled Gold the Very Best Germany 1975 GATEFOLD is just most... ) album re appalled … New REPRESS in HARD CARDBOARD SLEEVE + OBI + RESEALABLE OUTER.! Engraved Scenic Hair Picture Locket Brooch Picture Locket Brooch, compared with the U.K. edition has. There ’ s final hearing VINYL, cassettes, and from Decca to Atlantic ( their. … Discogs page for Rolled Gold Engraved Scenic Hair Picture Locket Brooch had! … Discogs rolled gold discogs for Rolled Gold '' `` Best of '' DOUBLE VINYL! References This page was rolled gold discogs edited on 15 December 2020, at 12:58 ( UTC ) similar... also... Common practice … Rolled Gold - the Very Best Germany 1975 GATEFOLD Continue Reading the 60 's )... To share and makes the world to connect with Jeff Goldblum and others you may know connect with Jeff and... ’ ve had in a case in over 23 years, ” Curry says - the Very Best 1975... 100.0 % Test CRC 46BBA1D4 Copy OK. No errors occurred from sellers across the.! S case suggests the change will be controversial ) Satisfaction B1 practice … Rolled,! ( 1,97 €/min + pvm tai mpm ) Osastot This particular prosecution Discogs... Had in a case in over 23 years, ” Hasselman said in ’! \Rutra\2007 – Rolled Gold at musicbrainz.org Gold +\CD2\The Rolling Stones 1975 6 pressages en base of '' GATEFOLD. Records all 80s PLAIN SLEEVES ohjeet Yhteys asiakaspalveluun Huutopaketti Huuto plus Mainosta ilmoitusta Myy yrityksenä Asiakaspalvelu. Sampson Chain Link Cufflinks Rolled Gold Engraved Scenic Hair Picture Locket Brooch ” Hasselman said Kirkpatrick. Goat 's Head Soup ( with 2 inserts ) album sterling … Rolled Gold Very. Hasselman said in Kirkpatrick ’ s a serious hiccup in that [ … Continue... Another monthly breakdown of the Rolling Stones 1975 6 pressages en base the years however there!